Skip to main content

Camper Van Beethoven Live at Graffiti's on 1985-03-07

Audio Preview

etree
Camper Van Beethoven Live at Graffiti's on 1985-03-07




Border Ska 3:37

The Day Lassie Went To The Moon 3:08

Vladivostock 2:47

Ambiguity Song 2:59

Tina 1:54

Where The Hell Is Bill? 2:23

Oh No 2:34

No Flies On Us 2:15

Take The Skinheads Bowling 2:40

Yanqui Go Home 3:42


Collection CamperVanBeethoven
Band/Artist Camper Van Beethoven
Venue Graffiti's
Location San Francisco CA

Source FM > ? > CD
Lineage CD-R > iTunes6.0.1(3) > xACT1.5b3 > flac
Taped by ?
Transferred by ?/morst

Notes

An upgraded source has been posted here:
http://www.archive.org/details/CVB1985-03-07.Norton

Source: FM > ? > CD (thanks for the disc Philippe!)
Transfer: CD-R > iTunes6.0.1(3) > xACT1.5b3 > flac

show with Box O' Laffs
Box O Laffs show is here: https://archive.org/details/BoxOLaffs1985-03-07

"Graffiti's was a gay S/M bar that was starting to become a punk club"

length expanded size cdr WAVE problems filename
3:37.42 38377628 --- -- ---xx cvb1985-03-07t01.flac
3:08.31 33236156 --- -- ---xx cvb1985-03-07t02.flac
2:47.08 29477660 --- -- ---xx cvb1985-03-07t03.flac
2:59.39 31667372 --- -- ---xx cvb1985-03-07t04.flac
1:54.63 20257820 --- -- ---xx cvb1985-03-07t05.flac
2:23.50 25342844 --- -- ---xx cvb1985-03-07t06.flac
2:34.08 27184460 --- -- ---xx cvb1985-03-07t07.flac
2:15.69 23976332 --- -- ---xx cvb1985-03-07t08.flac
2:40.13 28254620 --- -- ---xx cvb1985-03-07t09.flac
3:42.69 39323132 --- -- ---xx cvb1985-03-07t10.flac
28:04.17 297098024 B (totals for 10 files, 0.5778 overall compression ratio)

comment
Reviews

Reviewer: njpg - favoritefavoritefavorite - January 20, 2012
Subject: This one is better than the other copy,
but still...
Reviewer: jonathan segel - favoritefavoritefavoritefavoritefavorite - September 5, 2006
Subject: graffiti club
also known as the chatterbox, the chameleon, etc. valencia by 19th...
sorry 'bout those backing vocals.
Reviewer: Jose Gaspar - favoritefavoritefavoritefavorite - February 7, 2006
Subject: The Beginning
The first listenable set here by this talented group. A workmanlike performance.
Reviewer: Michael N. - favoritefavoritefavoritefavoritefavorite - February 6, 2006
Subject: Great early show
This is an excellent example of an early Camper show, and demonstrates that their musicianship was solid even in their early years.

I assume this was a KUSF broadcast, which explains the goofy intro from some KUSF DJ, and the good sound quality.

Very funny apology after "O No" -- the backing vocals are really bad, in stark contrast to the LP, which has a killer version. No wonder they never played this great song live.

I am curious about "Graffiti's", however -- lived in SF in the 80's, saw plenty of Camper shows right around this time, and other shows, and cannot for the life of me remember this place.
SIMILAR ITEMS (based on metadata)
Camper Van Beethoven
by Camper Van Beethoven
etree
eye 3,336
favorite 2
comment 1
favoritefavorite ( 1 reviews )
Source: FM broadcast > ? > Cassette
Camper Van Beethoven
by Camper Van Beethoven
etree
eye 18,494
favorite 2
comment 3
favoritefavoritefavoritefavoritefavorite ( 3 reviews )
Source: Matrix
Camper Van Beethoven
by Camper Van Beethoven
etree
eye 1,686
favorite 3
comment 1
( 1 reviews )
Source: audience
Camper Van Beethoven
by Camper Van Beethoven
etree
eye 931
favorite 2
comment 1
favoritefavoritefavoritefavoritefavorite ( 1 reviews )
Source: SBD + AUD
Camper Van Beethoven
by Camper Van Beethoven
etree
eye 1,335
favorite 1
comment 0
Source: Audience recording > WAV
Camper Van Beethoven
by Camper Van Beethoven
etree
eye 222
favorite 1
comment 0
Source: SBD + AUD mix @24/48
Camper Van Beethoven
by Camper Van Beethoven
etree
eye 77,408
favorite 3
comment 1
favoritefavoritefavoritefavoritefavorite ( 1 reviews )
Source: Neumann KM140's > MV100 > SBM-1 (oade mod) > TCD-D100
Camper Van Beethoven
by Camper Van Beethoven
etree
eye 8,995
favorite 3
comment 2
favoritefavoritefavoritefavoritefavorite ( 2 reviews )
Source: DAUD
Camper Van Beethoven
by Camper Van Beethoven
etree
eye 510
favorite 1
comment 0
Source: FM > Cass/2
Camper Van Beethoven
by Camper Van Beethoven
etree
eye 3,440
favorite 1
comment 1
favoritefavoritefavorite ( 1 reviews )
Source: FM > Cassette (3rd gen)